Скачать через торрент Тайна дома с часами The House with a Clock in Its Walls Фильм бесплатно в хорошем качестве torrent

Скачивайте на UnionPeer.org фильмы через торрент без регистрации. Новинки кино в хорошем качестве через торрент. На UnionPeer.org можно скачать через торрент фильмы 2014 и 2015 годов. Самые новые фильмы.

Скачать торрент Тайна дома с часами The House with a Clock in Its Walls бесплатно через .torrent фильм мультфильм сериал

Статистика раздачи
Размер:  4.83 GB   |    Зарегистрирован:  1 месяц 2 дня   |    .torrent скачан:  224 раза   |   
Раздают:  1  
   
загрузка...
 
Автор Сообщение

Galfimbul

avatar Galfimbul


Тайна дома с часами / The House with a Clock in Its Walls

Страна: США Канада Индия
Производство: DreamWorks SKG, Amblin Entertainment, Mythology Entertainment
Год выпуска: 2018
Жанр: ужасы, фантастика, фэнтези, триллер, комедия, детектив, семейный
Продолжительность: 01:49:43

Режиссер: Элай Рот / Eli Roth
В ролях: Джек Блэк, Кейт Бланшетт, Оуэн Ваккаро, Кайл МакЛоклен, Рене Голдсберри, Коллин Кэмп, Санни Сулджик, Лоренца Иззо

Описание: Первое, что услышал Льюис, ступив на порог загадочного особняка своего дяди, — это тиканье часов, раздававшееся из древних стен. Он окунается в мир магии и колдовства, о существовании которого даже не подозревал. Здесь оживают картины, обитают невероятные создания, а сердце дома хранит тайну времени...



Перевод: Профессиональный (полное дублирование) | чистый звук (line)
Субтитры: нет
Качество: WEBRip 1080p
Формат: МР4
Видео кодек: AVC
Аудио кодек: ААС
Видео: 1920x1080 (16:9), 30.000 fps, MPEG-4 AVC ~6 169 kbps avg
Аудио: 44.1 kHz, Advanced Audio Codec, 2/0 (L,R) ch, ~129 kbps

Дата премьеры (мир): 19 сентября 2018
Дата премьеры (РФ): 27 сентября 2018, «UPI»

<span style="color:Green;">

General
Complete name : Тайна дома с часами (2018).mp4
Format : MPEG-4
Format profile : Base Media
Codec ID : isom (isom/iso2/avc1/mp41)
File size : 4.83 GiB
Duration : 1 h 49 min
Overall bit rate : 6 307 kb/s
Performer : Microsoft Game DVR
Writing application : Lavf56.40.101

Video
ID : 1
Format : AVC
Format/Info : Advanced Video Codec
Format profile : High@L4
Format settings, CABAC : Yes
Format settings, RefFrames : 2 frames
Codec ID : avc1
Codec ID/Info : Advanced Video Coding
Duration : 1 h 49 min
Bit rate : 6 169 kb/s
Width : 1 920 pixels
Height : 1 080 pixels
Display aspect ratio : 16:9
Frame rate mode : Constant
Frame rate : 30.000 FPS
Color space : YUV
Chroma subsampling : 4:2:0
Bit depth : 8 bits
Scan type : Progressive
Bits/(Pixel*Frame) : 0.099
Stream size : 4.73 GiB (98%)

Audio
ID : 2
Format : AAC
Format/Info : Advanced Audio Codec
Format profile : LC
Codec ID : 40
Duration : 1 h 49 min
Bit rate mode : Constant
Bit rate : 129 kb/s
Channel(s) : 2 channels
Channel positions : Front: L R
Sampling rate : 44.1 kHz
Frame rate : 43.066 FPS (1024 SPF)
Compression mode : Lossy
Stream size : 101 MiB (2%)
Default : Yes
Alternate group : 1
Источник http://BlaTor.org

Трекер:  [ 14-Дек-2018 18:00 ]

  

Скачать .torrent

Размер .torrent файла 12 KB


Размер: 4.83 GB
Хэш (hash) релиза: 28ece6864c02cb32ef5b53cbc07c09fedc523c74
Подписка на обновления:

Торренты, похожие на Тайна дома с часами The House with a Clock in Its Walls скачать торрент

Форум Название Автор Размер S L Добавлен
Зарубежные фильмы 2016-2018 (Новинки зарубежного кино) ·%· Тайна дома с часами / The House with a Clock in Its Walls (2018) Blu-Ray 1080p | Лицензия Galfimbul 3948517398436.77 GB 0 0 1547677210

01:20

17-Янв-19

Зарубежные фильмы 2016-2018 (Новинки зарубежного кино) ·%· Тайна дома с часами / The House with a Clock in Its Walls (2018) BDRip 720p от селезень | Лицензия Galfimbul 52549490654.89 GB 0 0 1547676024

01:00

17-Янв-19

Зарубежные фильмы 2016-2018 (Новинки зарубежного кино) ·%· Тайна дома с часами / The House with a Clock in Its Walls (2018) BDRemux 1080p от селезень | Лицензия Galfimbul 2434900149122.68 GB 0 0 1547676012

01:00

17-Янв-19

Зарубежные фильмы 2016-2018 (Новинки зарубежного кино) ·%· Тайна дома с часами / The House with a Clock in Its Walls (2018) BDRip 1080p от селезень | Лицензия Galfimbul 94720336838.82 GB 0 0 1547674817

00:40

17-Янв-19

Зарубежные фильмы 2016-2018 (Новинки зарубежного кино) ·%· Тайна дома с часами / The House with a Clock in Its Walls (2018) HDRip | КПК | D Galfimbul 418946322400 MB 0 0 1547127092

16:31

10-Янв-19

Зарубежные фильмы 2016-2018 (Новинки зарубежного кино) ·%· Тайна дома с часами / The House with a Clock in Its Walls (2018) BDRip-AVC от HELLYWOOD | D Galfimbul 22926654152.14 GB 0 0 1546848011

11:00

7-Янв-19

Зарубежные фильмы 2016-2018 (Новинки зарубежного кино) ·%· Тайна дома с часами / The House with a Clock in Its Walls (2018) BDRip 720p от HELLYWOOD | D Galfimbul 44930833764.18 GB 0 0 1546843207

09:40

7-Янв-19

Зарубежные фильмы 2016-2018 (Новинки зарубежного кино) ·%· Тайна дома с часами / The House with a Clock in Its Walls (2018) BDRip от ExKinoRay | D Galfimbul 15201133541.42 GB 0 0 1545720612

09:50

25-Дек-18

Зарубежные фильмы 2016-2018 (Новинки зарубежного кино) ·%· Тайна дома с часами / The House with a Clock in Its Walls (2018) BDRemux 1080p | Line Galfimbul 2354176090421.92 GB 0 0 1545236442

19:20

19-Дек-18

Зарубежные фильмы 2016-2018 (Новинки зарубежного кино) ·%· Тайна дома с часами / The House with a Clock in Its Walls (2018) BDRip от MegaPeer | Line Galfimbul 781350894745 MB 0 0 1545227440

16:50

19-Дек-18

Зарубежные фильмы 2016-2018 (Новинки зарубежного кино) ·%· Тайна дома с часами / The House with a Clock in Its Walls (2018) HDRip-AVC | Line Galfimbul 781132276745 MB 0 0 1545127814

13:10

18-Дек-18

Зарубежные фильмы 2016-2018 (Новинки зарубежного кино) ·%· Тайна дома с часами / The House with a Clock in Its Walls (2018) HDRip от Scarabey | Line Galfimbul 15555293591.45 GB 0 0 1545067827

20:30

17-Дек-18

Зарубежные фильмы 2016-2018 (Новинки зарубежного кино) ·%· Тайна дома с часами / The House with a Clock in Its Walls (2018) BDRip 1080p от селезень | Line Galfimbul 105019774559.78 GB 0 0 1544962872

15:21

16-Дек-18

Зарубежные фильмы 2016-2018 (Новинки зарубежного кино) ·%· Тайна дома с часами / The House with a Clock in Its Walls (2018) BDRip-AVC от OlLanDGroup | Line Galfimbul 19460599281.81 GB 0 0 1544938207

08:30

16-Дек-18

Зарубежные фильмы 2016-2018 (Новинки зарубежного кино) ·%· Тайна дома с часами / The House with a Clock in Its Walls (2018) WEB-DL 1080p | Line Galfimbul 40371683403.76 GB 0 0 1544893841

20:10

15-Дек-18

Зарубежные фильмы 2016-2018 (Новинки зарубежного кино) ·%· Тайна дома с часами / The House with a Clock in Its Walls (2018) BDRip от MegaPeer | Line Galfimbul 15711744001.46 GB 0 0 1544891430

19:30

15-Дек-18

Зарубежные фильмы 2016-2018 (Новинки зарубежного кино) ·%· Тайна дома с часами / The House with a Clock in Its Walls (2018) HDRip-AVC от Dalemake | Line Galfimbul 15989350301.49 GB 0 0 1544886609

18:10

15-Дек-18

Еще никто не оставлял запись к записи скачать торрент Тайна дома с часами The House with a Clock in Its Walls . Будь первым!

!Обратная связь