Скачать через торрент Фиксики: Большой секрет Фильм бесплатно в хорошем качестве torrent

Скачивайте на UnionPeer.org фильмы через торрент без регистрации. Новинки кино в хорошем качестве через торрент. На UnionPeer.org можно скачать через торрент фильмы 2014 и 2015 годов. Самые новые фильмы.

Скачать торрент Фиксики: Большой секрет бесплатно через .torrent фильм мультфильм сериал

Статистика раздачи
Размер:  2.39 GB   |    Зарегистрирован:  1 год   |    .torrent скачан:  118 раз   |   
Раздают:  1  
   
загрузка...
 
Автор Сообщение

Galfimbul

avatar Galfimbul


Информация о фильме
Фиксики: Большой секрет

Год выхода: 2017
Жанр: мультфильм, приключения, комедия, музыка
Страна: Россия
Студия: Анимационная студия «Аэроплан»
Продолжительность: 01:17:57
Перевод: Не требуется | iTunes
Режиссер: Васико Бедошвили, Андрей Колпин, Иван Пшонкин
В ролях: Дмитрий Назаров, Александр Пушной, Лариса Брохман, Диомид Виноградов, Инна Королёва, Пётр Иващенко, Яков Васильев, Дарья Колбасеева, Варвара Обидор, Прохор Чеховской

О фильме
Фиксики — маленькие добрые человечки, которые живут в машинах и приборах и заботятся о технике. Но люди не должны знать о фиксиках! Это БОЛЬШОЙ СЕКРЕТ! Фиксики находят способ перемещаться по электрическим проводам. Теперь они смогут мгновенно починить любой прибор, где бы он ни был! И тут недоработанное изобретение попадает к озорнику Файеру. В руках маленького фиксика оно становится причиной больших проблем. Искры, взрывы, разрушения, взбесившаяся техника — город на грани катастрофы! Фиксикам почти чудом удаётся её предотвратить. Но как сохранить их БОЛЬШОЙ СЕКРЕТ?!

Файл
Качество: WEB-DL 720p
Видео: MPEG-4 AVC, 1280x692, 3999 Кбит/с, 24.000 fps
Аудио: AC3, 48 КГц, 6 ch, 384 Кбит/с
Субтитры: нет
Навигация по главам: есть
Общее
Уникальный идентификатор : 241165384933728351779730199899001187469 (0xB56EC37DDE64212A99A2D48875A9EC8D)
Полное имя : Фиксики большой секрет.2017.WEB-DL.720p.mkv
Формат : Matroska
Версия формата : Version 2
Размер файла : 2,39 Гбайт
Продолжительность : 1 ч. 17 м.
Общий поток : 4385 Кбит/сек
Дата кодирования : UTC 2017-12-30 22:00:48
Программа кодирования : mkvmerge v8.3.0 ('Over the Horizon') 64bit
Библиотека кодирования : libebml v1.3.1 + libmatroska v1.4.2

Видео
Идентификатор : 1
Формат : AVC
Формат/Информация : Advanced Video Codec
Профиль формата : High@L3.1
Параметр CABAC формата : Нет
Параметр RefFrames формата : 2 кадра
Идентификатор кодека : V_MPEG4/ISO/AVC
Продолжительность : 1 ч. 17 м.
Битрейт : 3999 Кбит/сек
Ширина : 1280 пикселей
Высота : 692 пикселя
Соотношение сторон : 1,85:1
Режим частоты кадров : Постоянный
Частота кадров : 24,000 кадра/сек
Цветовое пространство : YUV
Субдискретизация насыщенности : 4:2:0
Битовая глубина : 8 бит
Тип развёртки : Прогрессивная
Бит/(Пиксели*Кадры) : 0.188
Размер потока : 2,18 Гбайт (91%)
Язык : English
Default : Да
Forced : Нет
Цветовой диапазон : Limited
Основные цвета : BT.709
Характеристики трансфера : BT.709
Коэффициенты матрицы : BT.709

Аудио
Идентификатор : 2
Формат : AC-3
Формат/Информация : Audio Coding 3
Параметр Endianness формата : Big
Идентификатор кодека : A_AC3
Продолжительность : 1 ч. 17 м.
Вид битрейта : Постоянный
Битрейт : 384 Кбит/сек
Каналы : 6 каналов
Расположение каналов : Front: L C R, Side: L R, LFE
Частота : 48,0 КГц
Частота кадров : 31,250 кадров/сек (1536 SPF)
Битовая глубина : 16 бит
Метод сжатия : С потерями
Размер потока : 214 Мбайт (9%)
Язык : Russian
Default : Да
Forced : Нет

Меню
00:00:00.000 : en:Глава 1
00:07:47.916 : en:Глава 2
00:14:09.457 : en:Глава 3
00:20:42.207 : en:Глава 4
00:27:24.540 : en:Глава 5
00:34:22.623 : en:Глава 6
00:39:50.539 : en:Глава 7
00:45:50.039 : en:Глава 8
00:51:18.705 : en:Глава 9
00:57:55.996 : en:Глава 10
01:03:50.537 : en:Глава 11
01:08:52.912 : en:Глава 12
Источник http://arutor.org

Трекер:  [ 30-Янв-2018 00:10 ]

  

Скачать .torrent

Размер .torrent файла 12 KB


Размер: 2.39 GB
Хэш (hash) релиза: 0082637d4c0441a701e095933be2b63ba5db23f1
Подписка на обновления:

Еще никто не оставлял запись к записи скачать торрент Фиксики: Большой секрет . Будь первым!

!Обратная связь