Скачать через торрент Сказ о Петре и Февронии Фильм бесплатно в хорошем качестве torrent

Скачивайте на UnionPeer.org фильмы через торрент без регистрации. Новинки кино в хорошем качестве через торрент. На UnionPeer.org можно скачать через торрент фильмы 2014 и 2015 годов. Самые новые фильмы.

Скачать торрент Сказ о Петре и Февронии бесплатно через .torrent фильм мультфильм сериал

Статистика раздачи
Размер:  2.46 GB   |    Зарегистрирован:  1 год 1 месяц   |    .torrent скачан:  321 раз   |   
Раздают:  1  
   
загрузка...
 
Автор Сообщение

Galfimbul

avatar Galfimbul


Сказ о Петре и Февронии



[b]Год выхода:
2017
Жанр: мультфильм, приключения, семейный
Режиссеры: Юрий Рязанов, Юрий Кулаков

В ролях: Иван Охлобыстин, Константин Карасик, Виктор Вержбицкий, Юлия Горохова, Диомид Виноградов, Вадим Медведев (II), Владимир Антоник, Владислав Юдин, Сергей Усков и др.

О сериале: XIII век. Злодей захватил власть в Муромском княжестве. Только отважный воин Петр выходит на бой со злодеем и побеждает его. Но ядовитая кровь колдуна отравляет спасителя княжества. Целительница Феврония готова применить свой дар, чтобы спасти Петра. Между молодыми людьми вспыхивает настоящее чистое чувство, которое им предстоит сохранить, несмотря на множество препятствий.

Производство: Россия / Киностудия "Вверх", Фонд поддержки развития общества «Наши дети»
Продолжительность: 01:18:04
Субтитры: Отсутствуют


Файл
Формат: MKV
Качество: WEB-DL 1080p

Видео: MPEG-4 AVC, 4072 Кбит/с, 1920x1080
Аудио RUS: AC3, 6 ch, 448 Кбит/с
Общее
Уникальный идентификатор : 178987660663807957865858458286594941361 (0x86A7C5003BFA1F65B289E46B9EFF61B1)
Полное имя : Skaz.O.Petre.I.Fevronii_2017.WEBRip.1080p.mkv
Формат : Matroska
Версия формата : Version 4 / Version 2
Размер файла : 2,46 Гбайт
Продолжительность : 1 ч. 18 м.
Режим общего битрейта : Постоянный
Общий поток : 4518 Кбит/сек
Дата кодирования : UTC 2017-12-29 13:44:26
Программа кодирования : mkvmerge v7.8.0 ('River Man') 64bit built on Mar 27 2015 16:31:37
Библиотека кодирования : libebml v1.3.1 + libmatroska v1.4.2

Видео
Идентификатор : 1
Формат : AVC
Формат/Информация : Advanced Video Codec
Профиль формата : High@L4
Настройки формата : CABAC / 1 Ref Frames
Параметр CABAC формата : Да
Параметр RefFrames формата : 1 кадр
Параметр GOP формата : M=1, N=25
Идентификатор кодека : V_MPEG4/ISO/AVC
Продолжительность : 1 ч. 18 м.
Вид битрейта : Постоянный
Битрейт : 4072 Кбит/сек
Ширина : 1920 пикселей
Высота : 1080 пикселей
Соотношение сторон : 16:9
Режим частоты кадров : Постоянный
Частота кадров : 25,000 кадров/сек
Цветовое пространство : YUV
Субдискретизация насыщенности : 4:2:0
Битовая глубина : 8 бит
Тип развёртки : Прогрессивная
Бит/(Пиксели*Кадры) : 0.079
Размер потока : 2,22 Гбайт (90%)
Язык : Russian
Default : Да
Forced : Нет

Аудио
Идентификатор : 2
Формат : AC-3
Формат/Информация : Audio Coding 3
Идентификатор кодека : A_AC3
Продолжительность : 1 ч. 18 м.
Вид битрейта : Постоянный
Битрейт : 448 Кбит/сек
Каналы : 6 каналов
Расположение каналов : Front: L C R, Side: L R, LFE
Частота : 48,0 КГц
Частота кадров : 31,250 кадров/сек (1536 SPF)
Битовая глубина : 16 бит
Метод сжатия : С потерями
Размер потока : 250 Мбайт (10%)
Язык : Russian
Default : Да
Forced : Нет
Источник http://arutor.org

Трекер:  [ 30-Дек-2017 09:00 ]

  

Скачать .torrent

Размер .torrent файла 13 KB


Размер: 2.46 GB
Хэш (hash) релиза: 87095d29dbeea74481b0cce8e1bce4437aba36e3
Подписка на обновления:

Торренты, похожие на Сказ о Петре и Февронии скачать торрент

Форум Название Автор Размер S L Добавлен
Мультфильмы до 2016 ·· Сказ о Петре и Февронии (Юрий Рязанов, Юрий Кулаков) [2017, Россия, мультфильм, приключения, семейный, WEB-DLRip] Galfimbul 15633121281.46 GB 0 0 1514628402

13:06

30-Дек-17

Мультфильмы до 2016 ·· Сказ о Петре и Февронии (Юрий Рязанов, Юрий Кулаков) [2017, Россия, Семейный фильм, DVD5] Galfimbul 45560791044.24 GB 0 0 1512903990

14:06

10-Дек-17

Еще никто не оставлял запись к записи скачать торрент Сказ о Петре и Февронии . Будь первым!

!Обратная связь